<?xml version="1.0" standalone="no"?>
<!DOCTYPE svg PUBLIC "-//W3C//DTD SVG 1.1//EN" "http://www.w3.org/Graphics/SVG/1.1/DTD/svg11.dtd">
<svg xmlns="http://www.w3.org/2000/svg">
<metadata>IconScout</metadata>
<defs>
<font id="unicons-14" horiz-adv-x="1000" >
<font-face font-family="unicons-14" font-weight="400" font-stretch="normal" units-per-em="1000" ascent="850" descent="-150" />
<missing-glyph horiz-adv-x="1000" />
<glyph glyph-name="compress-point" unicode="&#xeb4e;" d="M905 5l-263 262h66a42 42 0 0 1 0 83h-149l236 236a42 42 0 1 1-59 59l-236-236v149a42 42 0 0 1-83 0v-66l-262 263a42 42 0 0 1-60-60l263-262h-66a42 42 0 0 1 0-83h149l-236-236a42 42 0 0 1 0-59 42 42 0 0 1 59 0l236 236v-149a42 42 0 0 1 83 0v66l262-263a42 42 0 0 1 60 0 42 42 0 0 1 0 60z" horiz-adv-x="1000" />

<glyph glyph-name="arrow-up-left" unicode="&#xeb4f;" d="M392 517h316a42 42 0 0 1 0 83h-416a42 42 0 0 1-16-3 42 42 0 0 1-23-23 42 42 0 0 1-3-16v-416a42 42 0 0 1 83 0v316l346-346a42 42 0 0 1 59 0 42 42 0 0 1 0 59z" horiz-adv-x="1000" />

<glyph glyph-name="arrow-compress-h" unicode="&#xeb50;" d="M500 642a42 42 0 0 1-42-42v-500a42 42 0 0 1 84 0v500a42 42 0 0 1-42 42z m-54-262l-104 104a42 42 0 1 1-59-59l33-33h-191a42 42 0 0 1 0-84h191l-33-33a42 42 0 0 1 0-59 42 42 0 0 1 59 0l104 104a42 42 0 0 1 9 14 39 39 0 0 1 0 32 42 42 0 0 1-9 14z m429 12h-191l33 33a42 42 0 0 1-59 59l-104-104a42 42 0 0 1 0-60l104-104a42 42 0 0 1 59 0 42 42 0 0 1 0 59l-33 33h191a42 42 0 0 1 0 84z" horiz-adv-x="1000" />

<glyph glyph-name="arrows-v-alt" unicode="&#xeb51;" d="M425 591l33 34v-192a42 42 0 0 1 84 0v192l33-34a42 42 0 0 1 59 0 42 42 0 0 1 0 59l-104 105a42 42 0 0 1-14 8 42 42 0 0 1-32 0 42 42 0 0 1-14-8l-104-105a42 42 0 0 1 59-59z m150-482l-33-34v192a42 42 0 0 1-84 0v-192l-33 34a42 42 0 0 1-59-59l104-105a42 42 0 0 1 14-8 39 39 0 0 1 32 0 42 42 0 0 1 14 8l104 105a42 42 0 0 1-59 59z" horiz-adv-x="1000" />

<glyph glyph-name="arrows-v" unicode="&#xeb52;" d="M637 171l-95-96v550l95-96a42 42 0 0 1 59 0 42 42 0 0 1 0 59l-166 167a42 42 0 0 1-14 8 42 42 0 0 1-32 0 42 42 0 0 1-14-8l-166-167a42 42 0 1 1 59-59l95 96v-550l-95 96a42 42 0 1 1-59-59l166-167a42 42 0 0 1 14-8 39 39 0 0 1 32 0 42 42 0 0 1 14 8l166 167a42 42 0 0 1-59 59z" horiz-adv-x="1000" />

<glyph glyph-name="arrows-shrink-v" unicode="&#xeb53;" d="M575 425a42 42 0 0 1 59 0 42 42 0 0 1 0 59l-104 104a42 42 0 0 1-14 9 42 42 0 0 1-32 0 42 42 0 0 1-14-9l-104-104a42 42 0 0 1 59-59l33 33v-216l-33 33a42 42 0 0 1-59-59l104-104a42 42 0 0 1 14-9 39 39 0 0 1 32 0 42 42 0 0 1 14 9l104 104a42 42 0 0 1-59 59l-33-33v216z m-283 258h416a42 42 0 0 1 0 84h-416a42 42 0 0 1 0-84z m416-666h-416a42 42 0 0 1 0-84h416a42 42 0 0 1 0 84z" horiz-adv-x="1000" />

<glyph glyph-name="arrow-break" unicode="&#xeb54;" d="M292 392h416a42 42 0 0 1 0 83h-166v150l33-34a42 42 0 0 1 59 0 42 42 0 0 1 0 59l-104 105a42 42 0 0 1-14 8 42 42 0 0 1-32 0 42 42 0 0 1-14-8l-104-105a42 42 0 0 1 59-59l33 34v-150h-166a42 42 0 0 1 0-83z m416-84h-416a42 42 0 0 1 0-83h166v-150l-33 34a42 42 0 0 1-59-59l104-105a42 42 0 0 1 14-8 39 39 0 0 1 32 0 42 42 0 0 1 14 8l104 105a42 42 0 0 1-59 59l-33-34v150h166a42 42 0 0 1 0 83z" horiz-adv-x="1000" />

<glyph glyph-name="align-center-v" unicode="&#xeb55;" d="M425 591l33 34v-108a42 42 0 0 1 84 0v108l33-34a42 42 0 0 1 59 0 42 42 0 0 1 0 59l-104 105a42 42 0 0 1-14 8 42 42 0 0 1-32 0 42 42 0 0 1-14-8l-104-105a42 42 0 0 1 59-59z m242-199h-334a42 42 0 0 1 0-84h334a42 42 0 0 1 0 84z m-92-283l-33-34v108a42 42 0 0 1-84 0v-108l-33 34a42 42 0 0 1-59-59l104-105a42 42 0 0 1 14-8 39 39 0 0 1 32 0 42 42 0 0 1 14 8l104 105a42 42 0 0 1-59 59z" horiz-adv-x="1000" />

<glyph glyph-name="angle-up" unicode="&#xeb56;" d="M708 291l-178 177a42 42 0 0 1-60 0l-176-177a42 42 0 0 1 0-59 42 42 0 0 1 59 0l147 148 148-148a42 42 0 0 1 29-12 42 42 0 0 1 29 12 42 42 0 0 1 2 59z" horiz-adv-x="1000" />

<glyph glyph-name="arrow-circle-up" unicode="&#xeb57;" d="M530 505a42 42 0 0 1-14 8 42 42 0 0 1-32 0 42 42 0 0 1-14-8l-125-125a42 42 0 0 1 60-60l53 55v-150a42 42 0 0 1 84 0v150l53-55a42 42 0 0 1 60 0 42 42 0 0 1 0 60z m-30 262a417 417 0 1 1 417-417 417 417 0 0 1-417 417z m0-750a333 333 0 1 0 333 333 333 333 0 0 0-333-333z" horiz-adv-x="1000" />

<glyph glyph-name="export" unicode="&#xeb58;" d="M363 529l95 96v-400a42 42 0 0 1 84 0v400l95-96a42 42 0 0 1 59 0 42 42 0 0 1 0 59l-166 167a42 42 0 0 1-14 8 42 42 0 0 1-32 0 42 42 0 0 1-14-8l-166-167a42 42 0 1 1 59-59z m512-262a42 42 0 0 1-42-42v-167a42 42 0 0 0-41-41h-584a42 42 0 0 0-41 41v167a42 42 0 0 1-84 0v-167a125 125 0 0 1 125-125h584a125 125 0 0 1 125 125v167a42 42 0 0 1-42 42z" horiz-adv-x="1000" />

<glyph glyph-name="arrows-resize-v" unicode="&#xeb59;" d="M667 392h-125v233l33-34a42 42 0 0 1 59 0 42 42 0 0 1 0 59l-104 105a42 42 0 0 1-14 8 42 42 0 0 1-32 0 42 42 0 0 1-14-8l-104-105a42 42 0 0 1 59-59l33 34v-233h-125a42 42 0 0 1 0-84h125v-233l-33 34a42 42 0 0 1-59-59l104-105a42 42 0 0 1 14-8 39 39 0 0 1 32 0 42 42 0 0 1 14 8l104 105a42 42 0 0 1-59 59l-33-34v233h125a42 42 0 0 1 0 84z" horiz-adv-x="1000" />

<glyph glyph-name="upload-alt" unicode="&#xeb5a;" d="M405 570l53 55v-483a42 42 0 0 1 84 0v483l53-55a42 42 0 0 1 60 0 42 42 0 0 1 0 60l-125 125a42 42 0 0 1-60 0l-125-125a42 42 0 0 1 60-60z m345-95h-83a42 42 0 0 1 0-83h83a42 42 0 0 0 42-42v-292a42 42 0 0 0-42-41h-500a42 42 0 0 0-42 41v292a42 42 0 0 0 42 42h83a42 42 0 0 1 0 83h-83a125 125 0 0 1-125-125v-292a125 125 0 0 1 125-125h500a125 125 0 0 1 125 125v292a125 125 0 0 1-125 125z" horiz-adv-x="1000" />

<glyph glyph-name="arrow-up-right" unicode="&#xeb5b;" d="M747 574a42 42 0 0 1-23 23 42 42 0 0 1-16 3h-416a42 42 0 0 1 0-83h316l-346-346a42 42 0 0 1 0-59 42 42 0 0 1 59 0l346 346v-316a42 42 0 0 1 83 0v416a42 42 0 0 1-3 16z" horiz-adv-x="1000" />

<glyph glyph-name="corner-up-right" unicode="&#xeb5c;" d="M817 548a42 42 0 0 1-9 14l-193 193a42 42 0 0 1-59 0 42 42 0 0 1 0-60l122-121h-333a167 167 0 0 1-167-167v-432a42 42 0 0 1 83 0v432a83 83 0 0 0 84 83h333l-122-121a42 42 0 0 1 30-71 42 42 0 0 1 29 12l193 193a50 50 0 0 1 9 14 42 42 0 0 1 0 31z" horiz-adv-x="1000" />

<glyph glyph-name="angle-double-up" unicode="&#xeb5d;" d="M530 328a42 42 0 0 1-60 0l-125-125a42 42 0 0 1 60-61l95 97 95-97a42 42 0 0 1 60 0 42 42 0 0 1 0 59z m-125 45l95 95 95-95a42 42 0 0 1 60 0 42 42 0 0 1 0 59l-125 125a42 42 0 0 1-60 0l-125-125a42 42 0 0 1 60-59z" horiz-adv-x="1000" />

<glyph glyph-name="sorting" unicode="&#xeb5e;" d="M470 425a42 42 0 0 1 60 0l125 125a42 42 0 1 1-60 59l-95-96-95 96a42 42 0 0 1-60-59z m60-191a42 42 0 0 1-60 0l-125-125a42 42 0 0 1 60-59l95 95 95-95a42 42 0 0 1 60 0 42 42 0 0 1 0 59z" horiz-adv-x="1000" />

<glyph glyph-name="exchange" unicode="&#xeb5f;" d="M750 433a42 42 0 0 1-42 42h-483l96 95a42 42 0 0 1-59 60l-167-167a42 42 0 0 1-8-45 42 42 0 0 1 38-26h583a42 42 0 0 1 42 41z m163-150a42 42 0 0 1-38 25h-583a42 42 0 0 1 0-83h483l-96-95a42 42 0 0 1 0-60 42 42 0 0 1 59 0l167 167a42 42 0 0 1 8 46z" horiz-adv-x="1000" />

<glyph glyph-name="corner-down-left" unicode="&#xeb60;" d="M779 767a42 42 0 0 1-42-42v-432a83 83 0 0 0-83-83h-334l122 121a42 42 0 0 1-57 61l-193-194a50 50 0 0 1-9-14 42 42 0 0 1 0-32 42 42 0 0 1 9-14l193-193a42 42 0 0 1 29-12 42 42 0 0 1 30 12 42 42 0 0 1 0 60l-122 121h333a167 167 0 0 1 167 167v432a42 42 0 0 1-43 42z" horiz-adv-x="1000" />

<glyph glyph-name="corner-right-down" unicode="&#xeb61;" d="M905 294a42 42 0 0 1-60 0l-121-122v333a167 167 0 0 1-167 167h-432a42 42 0 1 1 0-83h432a83 83 0 0 0 83-84v-333l-121 122a42 42 0 0 1-61-59l193-193a50 50 0 0 1 14-9 39 39 0 0 1 31 0 42 42 0 0 1 14 9l193 193a42 42 0 0 1 2 59z" horiz-adv-x="1000" />

<glyph glyph-name="corner-down-right" unicode="&#xeb62;" d="M817 183a50 50 0 0 1-9 14l-193 195a42 42 0 0 1-59-59l122-122h-292a125 125 0 0 0-125 125v389a42 42 0 1 1-83 0v-390a208 208 0 0 1 208-209h292l-122-121a42 42 0 0 1 0-60 42 42 0 0 1 30-12 42 42 0 0 1 29 12l193 193a42 42 0 0 1 9 14 42 42 0 0 1 0 31z" horiz-adv-x="1000" />

<glyph glyph-name="corner-up-left" unicode="&#xeb63;" d="M612 574h-292l122 121a42 42 0 0 1 0 60 42 42 0 0 1-59 0l-191-193a42 42 0 0 1-9-14 42 42 0 0 1 0-32 50 50 0 0 1 9-13l193-195a42 42 0 0 1 29-12 42 42 0 0 1 30 71l-122 123h292a125 125 0 0 0 125-125v-390a42 42 0 0 1 83 0v390a208 208 0 0 1-210 209z" horiz-adv-x="1000" />

<glyph glyph-name="corner-left-down" unicode="&#xeb64;" d="M875 670h-390a208 208 0 0 1-209-208v-292l-121 124a42 42 0 0 1-60 0 42 42 0 0 1 0-59l193-193a42 42 0 0 1 14-9 39 39 0 0 1 32 0 50 50 0 0 1 14 9l194 193a42 42 0 0 1-59 59l-123-122v292a125 125 0 0 0 125 125h390a42 42 0 0 1 0 83z" horiz-adv-x="1000" />

<glyph glyph-name="maximize-left" unicode="&#xeb65;" d="M225 683h67a42 42 0 0 1 0 84h-167a42 42 0 0 1-16-4 42 42 0 0 1-22-22 42 42 0 0 1-4-16v-167a42 42 0 0 1 84 0v67l241-242a42 42 0 0 1 59 0 42 42 0 0 1 0 59z m650-500a42 42 0 0 1-42-41v-67l-241 242a42 42 0 0 1-59-59l242-241h-67a42 42 0 0 1 0-84h167a42 42 0 0 1 16 4 42 42 0 0 1 22 22 42 42 0 0 1 4 16v167a42 42 0 0 1-42 41z" horiz-adv-x="1000" />

<glyph glyph-name="corner-up-right-alt" unicode="&#xeb66;" d="M830 428a42 42 0 0 1-9 14l-125 125a42 42 0 1 1-59-59l54-54h-399a125 125 0 0 1-125-125v-166a42 42 0 0 1 83 0v166a42 42 0 0 0 42 42h399l-54-54a42 42 0 0 1 0-59 42 42 0 0 1 59 0l125 125a42 42 0 0 1 9 14 42 42 0 0 1 0 31z" horiz-adv-x="1000" />

<glyph glyph-name="corner-down-right-alt" unicode="&#xeb67;" d="M872 324a42 42 0 0 1-9 14l-125 125a42 42 0 0 1-59-59l54-54h-400a42 42 0 0 0-41 42v166a42 42 0 0 1-84 0v-166a125 125 0 0 1 125-125h400l-54-54a42 42 0 0 1 0-59 42 42 0 0 1 59 0l125 125a42 42 0 0 1 9 14 42 42 0 0 1 0 31z" horiz-adv-x="1000" />

<glyph glyph-name="top-arrow-from-top" unicode="&#xeb68;" d="M792 17h-584a42 42 0 0 1 0-84h584a42 42 0 0 1 0 84z m-429 512l95 96v-483a42 42 0 0 1 84 0v483l95-96a42 42 0 0 1 59 0 42 42 0 0 1 0 59l-166 167a42 42 0 0 1-14 8 42 42 0 0 1-32 0 42 42 0 0 1-14-8l-166-167a42 42 0 1 1 59-59z" horiz-adv-x="1000" />

<glyph glyph-name="top-arrow-to-top" unicode="&#xeb69;" d="M530 588a42 42 0 0 1-14 9 42 42 0 0 1-32 0 42 42 0 0 1-14-9l-166-167a42 42 0 1 1 59-59l95 96v-483a42 42 0 0 1 84 0v483l95-96a42 42 0 0 1 59 0 42 42 0 0 1 0 59z m262 179h-584a42 42 0 0 1 0-84h584a42 42 0 0 1 0 84z" horiz-adv-x="1000" />

<glyph glyph-name="arrow-random" unicode="&#xeb6a;" d="M362 433a42 42 0 0 1 59 0 42 42 0 0 1 0 59l-261 263a42 42 0 0 1-59-60z m513-166a42 42 0 0 1-42-42v-150l-190 192a42 42 0 0 1-60-60l192-190h-150a42 42 0 0 1 0-84h250a42 42 0 0 1 16 4 42 42 0 0 1 22 22 42 42 0 0 1 4 16v250a42 42 0 0 1-42 42z m38 474a42 42 0 0 1-22 22 42 42 0 0 1-16 4h-250a42 42 0 0 1 0-84h150l-680-678a42 42 0 0 1 0-60 42 42 0 0 1 60 0l678 680v-150a42 42 0 0 1 84 0v250a42 42 0 0 1-4 16z" horiz-adv-x="1000" />

<glyph glyph-name="shuffle" unicode="&#xeb6b;" d="M125 433a42 42 0 0 1 42 42v150l190-192a42 42 0 0 1 60 0 42 42 0 0 1 0 59l-192 191h150a42 42 0 0 1 0 84h-250a42 42 0 0 1-16-4 42 42 0 0 1-22-22 42 42 0 0 1-4-16v-250a42 42 0 0 1 42-42z m513-166a42 42 0 0 1-59-59l261-262a42 42 0 0 1 30-12 42 42 0 0 1 29 12 42 42 0 0 1 0 59z m-263-250h-150l680 678a42 42 0 1 1-60 60l-678-680v150a42 42 0 0 1-84 0v-250a42 42 0 0 1 4-16 42 42 0 0 1 22-22 42 42 0 0 1 16-4h250a42 42 0 0 1 0 84z" horiz-adv-x="1000" />

<glyph glyph-name="direction" unicode="&#xeb6c;" d="M405 425l95 95 95-95a42 42 0 0 1 60 0 42 42 0 0 1 0 59l-125 125a42 42 0 0 1-60 0l-125-125a42 42 0 0 1 60-59z m190-191l-95-96-95 96a42 42 0 0 1-60-59l125-125a42 42 0 0 1 60 0l125 125a42 42 0 0 1-60 59z" horiz-adv-x="1000" />

<glyph glyph-name="angle-right" unicode="&#xeb6d;" d="M618 380l-177 176a42 42 0 0 1-59 0 42 42 0 0 1 0-58l148-148-148-147a42 42 0 0 1 0-59 42 42 0 0 1 30-12 42 42 0 0 1 29 12l177 176a42 42 0 0 1 0 60z" horiz-adv-x="1000" />

<glyph glyph-name="arrow-circle-right" unicode="&#xeb6e;" d="M655 320a42 42 0 0 1 8 14 42 42 0 0 1 0 32 42 42 0 0 1-8 14l-125 125a42 42 0 0 1-60-60l55-53h-150a42 42 0 0 1 0-84h150l-55-53a42 42 0 0 1 0-60 42 42 0 0 1 60 0z m262 30a417 417 0 1 1-417-417 417 417 0 0 1 417 417z m-750 0a333 333 0 1 0 333-333 333 333 0 0 0-333 333z" horiz-adv-x="1000" />

<glyph glyph-name="arrow-to-right" unicode="&#xeb6f;" d="M738 380l-167 166a42 42 0 1 1-59-59l96-95h-483a42 42 0 0 1 0-84h483l-96-95a42 42 0 0 1 0-59 42 42 0 0 1 59 0l167 166a42 42 0 0 1 9 14 42 42 0 0 1 0 32 42 42 0 0 1-9 14z m137 303a42 42 0 0 1-42-41v-584a42 42 0 0 1 84 0v584a42 42 0 0 1-42 41z" horiz-adv-x="1000" />

<glyph glyph-name="arrow-from-right" unicode="&#xeb70;" d="M125 683a42 42 0 0 1-42-41v-584a42 42 0 0 1 84 0v584a42 42 0 0 1-42 41z m788-317a42 42 0 0 1-8 14l-167 166a42 42 0 1 1-59-59l96-95h-483a42 42 0 0 1 0-84h483l-96-95a42 42 0 0 1 0-59 42 42 0 0 1 59 0l167 166a42 42 0 0 1 8 14 42 42 0 0 1 0 32z" horiz-adv-x="1000" />

<glyph glyph-name="expand-from-corner" unicode="&#xeb71;" d="M458 350h-333a42 42 0 0 1-42-42v-333a42 42 0 0 1 42-42h333a42 42 0 0 1 42 42v333a42 42 0 0 1-42 42z m-41-333h-250v250h250z m496 724a42 42 0 0 1-22 22 42 42 0 0 1-16 4h-250a42 42 0 0 1 0-84h150l-221-220a42 42 0 0 1 0-59 42 42 0 0 1 59 0l220 221v-150a42 42 0 0 1 84 0v250a42 42 0 0 1-4 16z" horiz-adv-x="1000" />

<glyph glyph-name="expand-arrows" unicode="&#xeb72;" d="M875 517a42 42 0 0 1 42 41v167a42 42 0 0 1-4 16 42 42 0 0 1-22 22 42 42 0 0 1-16 4h-167a42 42 0 0 1 0-84h67l-275-274-275 274h67a42 42 0 0 1 0 84h-167a42 42 0 0 1-16-4 42 42 0 0 1-22-22 42 42 0 0 1-4-16v-167a42 42 0 0 1 84 0v67l274-275-274-275v67a42 42 0 0 1-84 0v-167a42 42 0 0 1 4-16 42 42 0 0 1 22-22 42 42 0 0 1 16-4h167a42 42 0 0 1 0 84h-67l275 274 275-274h-67a42 42 0 0 1 0-84h167a42 42 0 0 1 16 4 42 42 0 0 1 22 22 42 42 0 0 1 4 16v167a42 42 0 0 1-84 0v-67l-274 275 274 275v-67a42 42 0 0 1 42-41z" horiz-adv-x="1000" />

<glyph glyph-name="arrows-maximize" unicode="&#xeb73;" d="M875 267a42 42 0 0 1-42-42v-150l-608 608h150a42 42 0 0 1 0 84h-250a42 42 0 0 1-16-4 42 42 0 0 1-22-22 42 42 0 0 1-4-16v-250a42 42 0 0 1 84 0v150l608-608h-150a42 42 0 0 1 0-84h250a42 42 0 0 1 16 4 42 42 0 0 1 22 22 42 42 0 0 1 4 16v250a42 42 0 0 1-42 42z" horiz-adv-x="1000" />

<glyph glyph-name="arrow-down-left" unicode="&#xeb74;" d="M708 183h-316l346 346a42 42 0 1 1-59 59l-346-346v316a42 42 0 0 1-83 0v-416a42 42 0 0 1 3-16 42 42 0 0 1 23-23 42 42 0 0 1 16-3h416a42 42 0 0 1 0 83z" horiz-adv-x="1000" />

<glyph glyph-name="expand-arrows-alt" unicode="&#xeb75;" d="M387 296l-220-221v67a42 42 0 0 1-84 0v-167a42 42 0 0 1 4-16 42 42 0 0 1 22-22 42 42 0 0 1 16-4h167a42 42 0 0 1 0 84h-67l221 220a42 42 0 0 1-59 59z m-162 387h67a42 42 0 0 1 0 84h-167a42 42 0 0 1-16-4 42 42 0 0 1-22-22 42 42 0 0 1-4-16v-167a42 42 0 0 1 84 0v67l220-221a42 42 0 0 1 59 0 42 42 0 0 1 0 59z m650-500a42 42 0 0 1-42-41v-67l-220 221a42 42 0 0 1-59-59l221-220h-67a42 42 0 0 1 0-84h167a42 42 0 0 1 16 4 42 42 0 0 1 22 22 42 42 0 0 1 4 16v167a42 42 0 0 1-42 41z m38 558a42 42 0 0 1-22 22 42 42 0 0 1-16 4h-167a42 42 0 0 1 0-84h67l-221-220a42 42 0 0 1 0-59 42 42 0 0 1 59 0l220 221v-67a42 42 0 0 1 84 0v167a42 42 0 0 1-4 16z" horiz-adv-x="1000" />

<glyph glyph-name="compress-alt" unicode="&#xeb76;" d="M905 755a42 42 0 0 1-60 0l-241-242v66a42 42 0 0 1-83 0v-166a42 42 0 0 1 3-16 42 42 0 0 1 23-23 42 42 0 0 1 16-3h166a42 42 0 0 1 0 83h-66l242 241a42 42 0 0 1 0 60z m-452-429a42 42 0 0 1-15 3h-167a42 42 0 0 1 0-83h66l-242-241a42 42 0 0 1 0-60 42 42 0 0 1 60 0l241 242v-66a42 42 0 0 1 83 0v167a42 42 0 0 1-3 15 42 42 0 0 1-23 23z" horiz-adv-x="1000" />

<glyph glyph-name="scroll" unicode="&#xeb77;" d="M470 445a42 42 0 0 1 60 0l208 209a42 42 0 1 1-59 59l-179-179-179 179a42 42 0 0 1-59-59z m60-190a42 42 0 0 1-60 0l-208-209a42 42 0 0 1 59-59l179 179 179-179a42 42 0 0 1 59 0 42 42 0 0 1 0 59z" horiz-adv-x="1000" />

<glyph glyph-name="arrow-circle-left" unicode="&#xeb78;" d="M345 380a42 42 0 0 1-8-14 42 42 0 0 1 0-32 42 42 0 0 1 8-14l125-125a42 42 0 0 1 60 60l-55 53h150a42 42 0 0 1 0 84h-150l55 53a42 42 0 0 1 0 60 42 42 0 0 1-60 0z m-262-30a417 417 0 1 1 417 417 417 417 0 0 1-417-417z m750 0a333 333 0 1 0-333 333 333 333 0 0 0 333-333z" horiz-adv-x="1000" />

<glyph glyph-name="angle-left" unicode="&#xeb79;" d="M470 350l148 148a42 42 0 0 1 0 58 42 42 0 0 1-59 0l-177-176a42 42 0 0 1 0-60l177-178a42 42 0 0 1 29-12 42 42 0 0 1 30 12 42 42 0 0 1 0 58z" horiz-adv-x="1000" />

<glyph glyph-name="arrows-merge" unicode="&#xeb7a;" d="M446 380l-104 104a42 42 0 1 1-59-59l33-33h-149v166a42 42 0 0 1-84 0v-416a42 42 0 0 1 84 0v166h149l-33-33a42 42 0 0 1 0-59 42 42 0 0 1 59 0l104 104a42 42 0 0 1 9 14 42 42 0 0 1 0 32 42 42 0 0 1-9 14z m429 220a42 42 0 0 1-42-42v-166h-149l33 33a42 42 0 0 1-59 59l-104-104a42 42 0 0 1-9-14 42 42 0 0 1 0-32 42 42 0 0 1 9-14l104-104a42 42 0 0 1 59 0 42 42 0 0 1 0 59l-33 33h149v-166a42 42 0 0 1 84 0v416a42 42 0 0 1-42 42z" horiz-adv-x="1000" />

<glyph glyph-name="arrow-down-right" unicode="&#xeb7b;" d="M708 600a42 42 0 0 1-41-42v-316l-346 346a42 42 0 0 1-59-59l346-346h-316a42 42 0 0 1 0-83h416a42 42 0 0 1 16 3 42 42 0 0 1 23 23 42 42 0 0 1 3 16v416a42 42 0 0 1-42 42z" horiz-adv-x="1000" />

<glyph glyph-name="corner-up-left-alt" unicode="&#xeb7c;" d="M708 454h-399l54 54a42 42 0 0 1-59 59l-125-125a42 42 0 0 1-9-14 42 42 0 0 1 0-31 42 42 0 0 1 9-14l125-125a42 42 0 0 1 59 0 42 42 0 0 1 0 59l-54 54h399a42 42 0 0 0 42-42v-166a42 42 0 0 1 83 0v166a125 125 0 0 1-125 125z" horiz-adv-x="1000" />

<glyph glyph-name="left-arrow-to-left" unicode="&#xeb7d;" d="M875 392h-483l96 95a42 42 0 1 1-59 59l-167-166a42 42 0 0 1-9-14 42 42 0 0 1 0-32 42 42 0 0 1 9-14l167-166a42 42 0 0 1 59 0 42 42 0 0 1 0 59l-96 95h483a42 42 0 0 1 0 84z m-750 333a42 42 0 0 1-42-42v-666a42 42 0 0 1 84 0v666a42 42 0 0 1-42 42z" horiz-adv-x="1000" />

<glyph glyph-name="minus-path" unicode="&#xeb7e;" d="M341 683h87a42 42 0 0 1 0 84h-87a42 42 0 0 1 0-84z m-216-303a42 42 0 0 1 42 42v87a42 42 0 0 1-84 0v-87a42 42 0 0 1 42-42z m478 303a42 42 0 0 1 83 0v42a42 42 0 0 1-42 42h-41a42 42 0 0 1 0-84z m272-147h-189a42 42 0 1 1-83 0h-247a42 42 0 0 1-42-42v-246a42 42 0 1 1 0-84v-189a42 42 0 0 1 42-42h519a42 42 0 0 1 42 42v519a42 42 0 0 1-42 42z m-42-519h-436v188h0v248h436z m-666 750h-42a42 42 0 0 1-42-42v-42a42 42 0 0 1 84 0 42 42 0 0 1 0 84z m0-519a42 42 0 0 1-84 0v-42a42 42 0 0 1 42-42h42a42 42 0 0 1 0 84z" horiz-adv-x="1000" />

<glyph glyph-name="left-arrow-from-left" unicode="&#xeb7f;" d="M708 392h-483l96 95a42 42 0 1 1-59 59l-167-166a42 42 0 0 1-8-14 42 42 0 0 1 0-32 42 42 0 0 1 8-14l167-166a42 42 0 0 1 59 0 42 42 0 0 1 0 59l-96 95h483a42 42 0 0 1 0 84z m167 291a42 42 0 0 1-42-41v-584a42 42 0 0 1 84 0v584a42 42 0 0 1-42 41z" horiz-adv-x="1000" />

<glyph glyph-name="repeat" unicode="&#xeb80;" d="M229 121h-62v458h325l-34-33a42 42 0 0 1 59-59l104 104a42 42 0 0 1 0 59l-104 105a42 42 0 0 1-59 0 42 42 0 0 1 0-60l33-32h-366a42 42 0 0 1-42-42v-542a42 42 0 0 1 42-41h104a42 42 0 0 1 0 83z m646 542h-104a42 42 0 0 1 0-84h62v-458h-348l33 33a42 42 0 0 1 0 59 42 42 0 0 1-59 0l-104-104a42 42 0 0 1 0-59l104-105a42 42 0 0 1 59 60l-33 33h390a42 42 0 0 1 42 41v542a42 42 0 0 1-42 42z" horiz-adv-x="1000" />

<glyph glyph-name="th-large" unicode="&#xeb81;" d="M833 725h-666a42 42 0 0 1-42-42v-666a42 42 0 0 1 42-42h666a42 42 0 0 1 42 42v666a42 42 0 0 1-42 42z m-375-667h-250v250h250z m0 334h-250v250h250z m334-334h-250v250h250z m0 334h-250v250h250z" horiz-adv-x="1000" />

<glyph glyph-name="line-spacing" unicode="&#xeb82;" d="M262 445a42 42 0 0 1 59 0 42 42 0 0 1 0 60l-83 83a42 42 0 0 1-14 9 42 42 0 0 1-31 0 42 42 0 0 1-14-9l-84-83a42 42 0 0 1 60-60l12 13v-216l-12 13a42 42 0 0 1-60-60l84-83a42 42 0 0 1 14-9 39 39 0 0 1 31 0 42 42 0 0 1 14 9l83 83a42 42 0 0 1-59 60l-12-13v216z m196 72h417a42 42 0 0 1 0 83h-417a42 42 0 0 1 0-83z m417-125h-417a42 42 0 0 1 0-84h417a42 42 0 0 1 0 84z m0-209h-417a42 42 0 0 1 0-83h417a42 42 0 0 1 0 83z" horiz-adv-x="1000" />

<glyph glyph-name="shrink" unicode="&#xeb83;" d="M446 380l-104 104a42 42 0 1 1-59-59l33-33h-191a42 42 0 0 1 0-84h191l-33-33a42 42 0 0 1 0-59 42 42 0 0 1 59 0l104 104a42 42 0 0 1 9 14 42 42 0 0 1 0 32 42 42 0 0 1-9 14z m429 12h-191l33 33a42 42 0 0 1-59 59l-104-104a42 42 0 0 1-9-14 42 42 0 0 1 0-32 42 42 0 0 1 9-14l104-104a42 42 0 0 1 59 0 42 42 0 0 1 0 59l-33 33h191a42 42 0 0 1 0 84z" horiz-adv-x="1000" />

<glyph glyph-name="compress-alt-left" unicode="&#xeb84;" d="M438 621a42 42 0 0 1-42-42v-66l-241 242a42 42 0 0 1-60-60l242-241h-66a42 42 0 0 1 0-83h167a42 42 0 0 1 15 3 42 42 0 0 1 23 23 42 42 0 0 1 3 16v166a42 42 0 0 1-41 42z m467-616l-242 241h66a42 42 0 0 1 0 83h-166a42 42 0 0 1-16-3 42 42 0 0 1-23-23 42 42 0 0 1-3-15v-167a42 42 0 0 1 83 0v66l241-242a42 42 0 0 1 60 0 42 42 0 0 1 0 60z" horiz-adv-x="1000" />

<glyph glyph-name="bring-front" unicode="&#xeb85;" d="M470 129l-53-54v483a42 42 0 0 1-84 0v-483l-53 54a42 42 0 0 1-60 0 42 42 0 0 1 0-59l125-125a42 42 0 0 1 60 0l125 125a42 42 0 0 1 0 59 42 42 0 0 1-60 0z m447 596a42 42 0 0 1-42 42h-750a42 42 0 0 1-42-42v-250a42 42 0 0 1 42-42h83a42 42 0 0 1 0 84h-41v166h666v-166h-291a42 42 0 0 1 0-84h41v-208a42 42 0 0 1 42-42h250a42 42 0 0 1 42 42v250h0z m-84-458h-166v166h166z" horiz-adv-x="1000" />

<glyph glyph-name="compress-lines" unicode="&#xeb86;" d="M708 17h-166v149l33-33a42 42 0 0 1 59 0 42 42 0 0 1 0 59l-104 104a42 42 0 0 1-14 9 42 42 0 0 1-32 0 42 42 0 0 1-14-9l-104-104a42 42 0 0 1 59-59l33 33v-149h-166a42 42 0 0 1 0-84h416a42 42 0 0 1 0 84z m-416 666h166v-149l-33 33a42 42 0 1 1-59-59l104-104a42 42 0 0 1 14-9 39 39 0 0 1 32 0 42 42 0 0 1 14 9l104 104a42 42 0 1 1-59 59l-33-33v149h166a42 42 0 0 1 0 84h-416a42 42 0 0 1 0-84z" horiz-adv-x="1000" />

<glyph glyph-name="bring-bottom" unicode="&#xeb87;" d="M875 267h-83a42 42 0 1 1 0-84h41v-166h-666v166h291a42 42 0 0 1 0 84h-41v208a42 42 0 0 1-42 42h-250a42 42 0 0 1-42-42v-250h0v-250a42 42 0 0 1 42-42h750a42 42 0 0 1 42 42v250a42 42 0 0 1-42 42z m-708 166h166v-166h-166z m363 138l53 54v-483a42 42 0 1 1 84 0v483l53-54a42 42 0 0 1 30-13 42 42 0 0 1 30 12 42 42 0 0 1 0 59l-125 125a42 42 0 0 1-60 0l-125-125a42 42 0 0 1 0-59 42 42 0 0 1 60 1z" horiz-adv-x="1000" />

<glyph glyph-name="compress-v" unicode="&#xeb88;" d="M530 296a42 42 0 0 1-14 9 42 42 0 0 1-32 0 42 42 0 0 1-14-9l-104-104a42 42 0 0 1 59-59l33 33v-191a42 42 0 0 1 84 0v191l33-33a42 42 0 0 1 59 0 42 42 0 0 1 0 59z m-60 108a42 42 0 0 1 14-9 39 39 0 0 1 32 0 42 42 0 0 1 14 9l104 104a42 42 0 1 1-59 59l-33-33v191a42 42 0 0 1-84 0v-191l-33 33a42 42 0 1 1-59-59z" horiz-adv-x="1000" />

<glyph glyph-name="spin" unicode="&#xeb89;" d="M542 725a292 292 0 0 1 0-583 208 208 0 0 1 0 416 125 125 0 0 1 0-250 42 42 0 0 1 0 84 42 42 0 0 0 0 83 125 125 0 0 0 0-250 208 208 0 0 0 0 417 292 292 0 0 0 0-584 375 375 0 0 0-375 375 42 42 0 0 1-84 0 458 458 0 0 1 459-458 375 375 0 0 1 0 750z" horiz-adv-x="1000" />
</font>
</defs>
</svg>
